세상 모든 관심거리

월급쟁이의 사소한 관심거리

㉿ 음반_CDs

[ALBUM] Vieuxtemps, Saint-Saëns, Sarasate, Waxman - Jascha Heifetz

관심거리 2015. 8. 4. 22:32



하이페츠가 녹음한 Waxman "Carmen" Fantasy를 들어보고 싶어 찾은 음반입니다.

오래된 레코딩이라 음질은 그닥 좋지 않습니다만, 하이페츠의 기교를 느끼는데에는 부족함이 없네요..ㄷㄷ(사람이 아니므니다..)


TRACK 01 AUDIO

    PERFORMER "Henri Vieuxtemps"

    TITLE "Violin Concerto No. 4 in D minor, Op. 31: I. Andante - Moderato - Cadenza"

    INDEX 01 00:00:00

  TRACK 02 AUDIO

    PERFORMER "Henri Vieuxtemps"

    TITLE "Violin Concerto No. 4 in D minor, Op. 31: II. Adagio religioso"

    INDEX 01 06:40:57

  TRACK 03 AUDIO

    PERFORMER "Henri Vieuxtemps"

    TITLE "Violin Concerto No. 4 in D minor, Op. 31: III. Scherzo: Trio"

    INDEX 01 12:57:70

  TRACK 04 AUDIO

    PERFORMER "Henri Vieuxtemps"

    TITLE "Violin Concerto No. 4 in D minor, Op. 31: IV. Finale marziale: Allegro"

    INDEX 01 17:17:25

  TRACK 05 AUDIO

    PERFORMER "Henri Vieuxtemps"

    TITLE "Violin Concerto No. 5 in A minor, Op. 37: I. Allegro non troppo"

    INDEX 01 23:26:72

  TRACK 06 AUDIO

    PERFORMER "Henri Vieuxtemps"

    TITLE "Violin Concerto No. 5 in A minor, Op. 37: II. Cadenza"

    INDEX 01 32:45:30

  TRACK 07 AUDIO

    PERFORMER "Henri Vieuxtemps"

    TITLE "Violin Concerto No. 5 in A minor, Op. 37: III. Adagio"

    INDEX 01 35:40:05

  TRACK 08 AUDIO

    PERFORMER "Henri Vieuxtemps"

    TITLE "Violin Concerto No. 5 in A minor, Op. 37: IV. Allegro con fuoco"

    INDEX 01 39:11:65

  TRACK 09 AUDIO

    PERFORMER "Camille Saint‐Saëns"

    TITLE "Introduction and Rondo Capriccioso"

    INDEX 01 40:20:60

  TRACK 10 AUDIO

    PERFORMER "Camille Saint‐Saëns"

    TITLE "Havanaise, Op. 83"

    INDEX 01 49:12:37

  TRACK 11 AUDIO

    PERFORMER "Pablo de Sarasate"

    TITLE "Zigeunerweisen, Op. 20"

    INDEX 01 58:29:17

  TRACK 12 AUDIO

    PERFORMER "Franz Waxman"

    TITLE "'Carmen' Fantasy"

    INDEX 01 67:14:15